The Killers T in the Park 2013 H264 422 1080i 39Mbps-aB

Imagine gazduita de servimg.com

Format : MPEG-TS at 40.3 Mbps
Length : 24.9 GiB for 1h 28mn 33s 386ms

Video #0 : AVC at 38.1 Mbps
Aspect : 1920 x 1080 (1.778) at 25.000 fps

Audio #0 : MPEG Audio at 256 Kbps
Infos : 2 channels, 48.0 KHz

aB


___ __ __ __ __
/ _ \/ / ___ / /________ _/ /__/ /_
/ _ / _ \(_-</ __/ __/ _ `/ '_/ __/
/_//_/_.__/___/\__/_/ \_,_/_/\_\\__/

The Killers - T in the Park 2013
Balado, Kinross, Scotland - July 14th, 2013

NOTE: Video is 10-bit 4:2:2 H.264. Hardware playback or GPU acceleration is not
possible for this profile. A quad core CPU is recommended for smooth playback.

Setlist:
- Somebody Told Me
- Spaceman
- The Way It Was
- Smile Like You Mean It
- Bling (Confession of a King)
- Shadowplay (Cover)
- Miss Atomic Bomb
- Human
- I Think We're Alone Now (Cover)
- For Reasons Unknown
- From Here On Out
- A Dustland Fairytale
- Side (Cover)
- Read My Mind
- Runaways
- All These Things That I've Done
Encore:
- When You Were Young
- Mr. Brightside

File Size Processed: 24.94 GB, Play Time: 01h:28m:32s
50.01 FPS (Average), 39.11 Mbps (Average).
MPEG Audio.
0 of 0 audio frames found with errors.
0.000000 seconds of audio timestamp gaps.

General
ID : 1 (0x1)
Complete name : The.Killers.T.in.the.Park.2013.H264.422.1080i.39Mbps-aB.ts
Format : MPEG-TS
File size : 24.9 GiB
Duration : 1h 28mn
Overall bit rate : 40.3 Mbps

Video
ID : 412 (0x19C)
Menu ID : 1 (0x1)
Format : AVC
Format/Info : Advanced Video Codec
Format profile : High 4:2:2@L4.1
Format settings, CABAC : Yes
Format settings, ReFrames : 4 frames
Codec ID : 27
Duration : 1h 28mn
Bit rate : 38.1 Mbps
Width : 1 920 pixels
Height : 1 080 pixels
Display aspect ratio : 16:9
Frame rate : 25.000 fps
Color space : YUV
Chroma subsampling : 4:2:2
Bit depth : 10 bits
Scan type : Interlaced
Scan order : Top Field First
Bits/(Pixel*Frame) : 0.734
Stream size : 23.5 GiB (94%)
Color primaries : BT.709-5, BT.1361, IEC 61966-2-4, SMPTE RP177
Transfer characteristics : BT.709-5, BT.1361
Matrix coefficients : BT.709-5, BT.1361, IEC 61966-2-4 709, SMPTE RP177

Audio
ID : 750 (0x2EE)
Menu ID : 1 (0x1)
Format : MPEG Audio
Format version : Version 1
Format profile : Layer 2
Mode : Dual mono
Codec ID : 4
Duration : 1h 28mn
Bit rate mode : Constant
Bit rate : 256 Kbps
Channel(s) : 2 channels
Sampling rate : 48.0 KHz
Compression mode : Lossy
Delay relative to video : -611ms
Stream size : 162 MiB (1%)
Language : English

Menu
ID : 228 (0xE4)
Menu ID : 1 (0x1)
List : 412 (0x19C) (AVC) / 750 (0x2EE) (MPEG Audio, English)
Language : / English
Maximum bit rate : 200000000

No comments:

Post a Comment

mmg1818™

 online
Image and video hosting by TinyPic


Search http://www.infospace.com
TweetByMail http://www.tweetbymail.com
MirrorMaker http://mirrormaker.org/sorter
RSS 2.0 http://www.rssowl.org No:1 for feed
NewsLeecherhttp://www.newsleecher.com No:1 for NZB
http://www.rssreader.com/beta.asp No:1 for USENET
Search users http://www.spokeo.com/
Twitter http://code.google.com/p/wittytwitter/downloads/list
MPV, CDMan, NewsMan, sugarbritches, shad0w, XEXX, xexxx, Mitsunari96, Ljorich,
madonion007, Suave, stel883, hiepham, georgex7, HDfan-ta, VideoMan, masahiro, azali
Disclaimer: This site does not host any files and it is not breaking any law of country where it is hosted. Save your time and do not send me stupid abuse reports. Thank you!

LinkWithin

Related Posts Plugin for WordPress, Blogger...

Subscribe via email

Enter your email address:

Delivered by FeedBurner

Blog Archive

eXTReMe Tracker

Disclaimer: This site does not host any files and it is not breaking any law of country where it is hosted. Save your time and do not send me stupid abuse reports. Thank you!